+86 0371 8654 9132

rocking at the tweed mill livin blues 320

rocking at the tweed mill livin blues 320 - Mining

Rockin At The Tweed MillArtwork. rocking at the tweed mill livin blues 320.Livin Blues Rocking At The Tweed Mill(1972) Written by bluesever Saturday, 17 July 2010 17:25 Last Updated Friday, 10 May 2013 16:46 "Rockin'at the Tweed Mill" is more or less a continuation from Bamboozle but you can see other elements creeping in here in some of the softer numbers but there's no lack of energy on this ...

Read More
Livin' Blues - Rocking At The Tweed Mill (1972 ...

Исполнитель: Livin' Blues Альбом: Rocking At The Tweed Mill Страна: Netherlands Жанр: Blues Rock Год: 1972 Формат: MP3 CBR 320 kbps/Covers Размер: 107 Mb Файлообменник: Yandex Disk:Треклист: 01 Ain't No Use Crying 02 Diving Duck Blues 03

Read More
Livin' Blues – Rocking At The Tweed Mill (1973, Vinyl ...

2021-11-5  View credits, reviews, tracks and shop for the 1973 Vinyl release of "Rocking At The Tweed Mill" on Discogs. Everything Releases Artists Labels ... Livin' Blues – Rocking At The Tweed Mill. Label:Philips – 6423 052: Format: Vinyl, LP, Album ... 10 AA6423052 1Y 320 B 1Matrix / Runout (Side B stamped): 10 AA6423052 2Y 320 A1 1Rights Society ...

Read More
Livin Blues – Rocking At The Tweed Mill (1972)

2021-11-5  Livin Blues – Rocking At The Tweed Mill (1972) Written by bluesever Saturday, 17 July 2010 17:25 - Last Updated Wednesday, 07 April 2021 20:39 "Rockin' at the Tweed Mill" is more or less a continuation from Bamboozle but you can see other elements creeping in here in some of the softer numbers but there's no lack of energy on this album.

Read More
LIVIN BLUES - ROCKING AT THE TWEED MILL -

Livin' Blues was a Dutch blues rock group formed in The Hague in 1967 by guitarist and front man Ted Oberg. During the early 70s they were considered, together with Cuby The Blizzards, as the absolute top of the Dutch blues scene. The Rocking At The

Read More
Livin' Blues - Rocking At The Tweed Mill Releases Discogs

Discover releases, reviews, credits, songs, and more about Livin' Blues - Rocking At The Tweed Mill at Discogs. Complete your Livin' Blues collection.

Read More
livin blues rocking at the tweed mill

Bamboozle/Rocking at the Tweed Mil Livin Blues User Livin Blues Rocking at the tweed mill Levykauppa 196 x. Read and write album reviews for Bamboozle/Rocking at the Tweed Mil Livin Blues on AllMusicKiitos varauksestasi ilmoitamme sähköpostilla kun varauksesi on noudettavissa Voit lisätä tähän samaan varaukseen muita vehkeitä kuluvan vuorokauden aikana ja

Read More
Livin' Blues – Rocking At The Tweed Mill (1973,

2021-10-12  View credits, reviews, tracks and shop for the 1973 Vinyl release of "Rocking At The Tweed Mill" on Discogs.

Read More
(Blues / Blues-Rock) Livin' Blues - Дискография (16 ...

(Blues / Blues-Rock) Livin' Blues - Дискография (16 релизов) - 1969-2019, MP3, 320 kbps » Зарубежный блюз ... место которого на концертнике Rocking at the Tweed Mill 1972-го занял Аржан Каминга. На диске Bamboozle был представлен трек Overture ...

Read More
Recensie: Livin’ Blues - Rocking At The Tweed Mill Blues ...

2017-9-17  Livin’ Blues – Rocking At The Tweed Mill. Format: 180 grams Vinyl LP / Label: Music On Vinyl. Releasedatum: 13 januari 2017. Tekst: Peter Marinus. Livin’ Blues was een Haagse blues band, die samen met Cuby The Blizzards de top van de Nederblues vormden in de jaren 60 en 70. Toch kreeg Livin’ Blues nooit echt dezelfde waardering als de ...

Read More
Livin' Blues - Rocking At The Tweed Mill (Japan Edition ...

Livin' Blues - Rocking At The Tweed Mill (Japan Edition) (2011) Country: Netherlands Genre: Blues-Rock Quality: FLAC (image+.cue+covers) MP3 CBR 320 kbps Tracklist: 01. Ain't No Use Crying

Read More
Livin Blues – Rocking At The Tweed Mill (1972)

2021-11-5  Livin Blues – Rocking At The Tweed Mill (1972) Written by bluesever Saturday, 17 July 2010 17:25 - Last Updated Wednesday, 07 April 2021 20:39 "Rockin' at the Tweed Mill" is more or less a continuation from Bamboozle but you can see other elements creeping in here in some of the softer numbers but there's no lack of energy on this album.

Read More
Livin' Blues - Rocking At The Tweed Mill (1972 ...

Исполнитель: Livin' Blues Альбом: Rocking At The Tweed Mill Страна: Netherlands Жанр: Blues Rock Год: 1972 Формат: MP3 CBR 320 kbps/Covers Размер: 107 Mb Файлообменник: Yandex Disk:Треклист: 01 Ain't No Use Crying 02 Diving Duck Blues 03

Read More
Livin Blues – Rocking At The Tweed Mill (1972)

2010-7-17  Livin Blues – Rocking At The Tweed Mill (1972) 01. Ain't No Use Crying (Christiansen/La Grand/Oberg/Van Buuren) - 4:04. 02. Diving Duck Blues (McDowell) - 6:55. 03. Eye To Eye (Christiansen/Oberg) - 3:06. 04.

Read More
livin blues rocking at the tweed mill

Bamboozle/Rocking at the Tweed Mil Livin Blues User Livin Blues Rocking at the tweed mill Levykauppa 196 x. Read and write album reviews for Bamboozle/Rocking at the Tweed Mil Livin Blues on AllMusicKiitos varauksestasi ilmoitamme sähköpostilla kun varauksesi on noudettavissa Voit lisätä tähän samaan varaukseen muita vehkeitä kuluvan vuorokauden aikana ja

Read More
(Blues) Livin' Blues - Rocking At The Tweed Mill (SHM ...

2011-3-17  Filename C:\xxx\Livin' Blues - Rocking At The Tweed Mill (1972)\Livin' Blues - Rocking At The Tweed Mill.wav Peak level 100.0 % Range quality 99.9 % Test CRC 92DA0135 Copy CRC 92DA0135 Copy OK No errors occurred AccurateRip summary Track 1 not

Read More
LIVIN' BLUES : ROCKING AT THE TWEED MILL (1973)

2017-5-4  LIVIN' BLUES - Rocking At The Tweed Mill (1973) Par LE KINGBEE le 4 Mai 2017 Consultée 1060 fois: 1972 reste comme l’année du changement pour LIVIN’ BLUES. Philips décide qu’il est temps pour les Hollandais de franchir un cap, en l’occurrence de traverser la Manche pour aller enregistrer en Angleterre. Fin octobre, le quintet de La ...

Read More
Recensie: Livin’ Blues - Rocking At The Tweed Mill Blues ...

2017-9-17  Livin’ Blues – Rocking At The Tweed Mill. Format: 180 grams Vinyl LP / Label: Music On Vinyl. Releasedatum: 13 januari 2017. Tekst: Peter Marinus. Livin’ Blues was een Haagse blues band, die samen met Cuby The Blizzards de top van de Nederblues vormden in de jaren 60 en 70. Toch kreeg Livin’ Blues nooit echt dezelfde waardering als de ...

Read More
(Blues / Blues-Rock) Livin' Blues - Дискография (16 ...

(Blues / Blues-Rock) Livin' Blues - Дискография (16 релизов) - 1969-2019, MP3, 320 kbps » Зарубежный блюз ... место которого на концертнике Rocking at the Tweed Mill 1972-го занял Аржан Каминга. На диске Bamboozle был представлен трек Overture ...

Read More
Виниловая пластинка Livin' Blues - альбом Rocking At

Купить виниловую пластинку Livin' Blues - альбом Rocking At The Tweed Mill по цене 13 000 ₽. , лейбл Philips, формат LP 01.01.1973, Blues Rock Near Mint. Удобный самовывоз около метро и возможность прослушать в магазине

Read More
Livin' Blues - Rocking At The Tweed Mill (Japan Edition ...

Livin' Blues - Rocking At The Tweed Mill (Japan Edition) (2011) Country: Netherlands Genre: Blues-Rock Quality: FLAC (image+.cue+covers) MP3 CBR 320 kbps Tracklist: 01. Ain't No Use Crying

Read More
Livin' Blues - Rocking At The Tweed Mill (1972 ...

Исполнитель: Livin' Blues Альбом: Rocking At The Tweed Mill Страна: Netherlands Жанр: Blues Rock Год: 1972 Формат: MP3 CBR 320 kbps/Covers Размер: 107 Mb Файлообменник: Yandex Disk:Треклист: 01 Ain't No Use Crying 02 Diving Duck Blues 03

Read More
Livin Blues – Rocking At The Tweed Mill (1972)

2010-7-17  Livin Blues – Rocking At The Tweed Mill (1972) 01. Ain't No Use Crying (Christiansen/La Grand/Oberg/Van Buuren) - 4:04. 02. Diving Duck Blues (McDowell) - 6:55. 03. Eye To Eye (Christiansen/Oberg) - 3:06. 04.

Read More
rockin at the tweed mill artwork

livin blues rocking at the tweed mill centrostampa srlitRockin at the Tweedmill AllMusic. rocking at the tweed mill artwork kvjconstructionsorg Livin Blues Rocking at the Tweed Mill 180g Import Colored Copies Are Limited / Call To Confirm Colored Copies Are Still Available Rocking at the Tweed Mill is the cornerstone album from Dutch blues band Livin Read and write album reviews for Rockin at ...

Read More
(Blues) Livin' Blues - Rocking At The Tweed Mill (SHM ...

2011-3-17  Filename C:\xxx\Livin' Blues - Rocking At The Tweed Mill (1972)\Livin' Blues - Rocking At The Tweed Mill.wav Peak level 100.0 % Range quality 99.9 % Test CRC 92DA0135 Copy CRC 92DA0135 Copy OK No errors occurred AccurateRip summary Track 1 not

Read More
LIVIN' BLUES : ROCKING AT THE TWEED MILL (1973)

2017-5-4  LIVIN' BLUES - Rocking At The Tweed Mill (1973) Par LE KINGBEE le 4 Mai 2017 Consultée 1060 fois: 1972 reste comme l’année du changement pour LIVIN’ BLUES. Philips décide qu’il est temps pour les Hollandais de franchir un cap, en l’occurrence de traverser la Manche pour aller enregistrer en Angleterre. Fin octobre, le quintet de La ...

Read More
Recensie: Livin’ Blues - Rocking At The Tweed Mill Blues ...

2017-9-17  Livin’ Blues – Rocking At The Tweed Mill. Format: 180 grams Vinyl LP / Label: Music On Vinyl. Releasedatum: 13 januari 2017. Tekst: Peter Marinus. Livin’ Blues was een Haagse blues band, die samen met Cuby The Blizzards de top van de Nederblues vormden in de jaren 60 en 70. Toch kreeg Livin’ Blues nooit echt dezelfde waardering als de ...

Read More
(Blues Rock) [CD] Livin' Blues - Discography 1969-2019 (21 ...

Filename D:\Sket4er\Livin' Blues – Rocking At The Tweed Mill (1973) 2013\Livin' Blues - Rocking At The Tweed Mill.wav Peak level 68.1 % Extraction speed 2.8 X Range quality 99.9 % Test CRC 04771380 Copy CRC 04771380 Copy OK No errors occurred AccurateRip summary

Read More
(Blues / Blues-Rock) Livin' Blues - Дискография (16 ...

(Blues / Blues-Rock) Livin' Blues - Дискография (16 релизов) - 1969-2019, MP3, 320 kbps » Зарубежный блюз ... место которого на концертнике Rocking at the Tweed Mill 1972-го занял Аржан Каминга. На диске Bamboozle был представлен трек Overture ...

Read More
Виниловая пластинка Livin' Blues - альбом Rocking At

Купить виниловую пластинку Livin' Blues - альбом Rocking At The Tweed Mill по цене 13 000 ₽. , лейбл Philips, формат LP 01.01.1973, Blues Rock Near Mint. Удобный самовывоз около метро и возможность прослушать в магазине

Read More